[更早] [欧美] [奇幻] [x264-720P] 吵闹鬼 Poltergeist.1982.REMASTERED.720p.BluRay.H264.AAC-RARBG 1.39 GB

uump4 2月前

悠悠MP4_MP4电影下载_吵闹鬼 Poltergeist.1982.REMASTERED.720p.BluRay.H264.AAC-RARBG 1.39 GB

◎片  名 吵闹鬼 Poltergeist / 鬼驱人 / 鬼哭神嚎
◎年  代 1982
◎产  地 美国
◎类  别 恐怖 / 奇幻
◎语  言 英语
◎上映日期 1982-06-04(美国)
◎IMDb评分  7.3/10 from 161630 users
◎IMDb链接  https://www.imdb.com/title/tt0084516/
◎豆瓣评分 6.8/10 from 2174 users
◎豆瓣链接 https://movie.douban.com/subject/1293042/
◎片  长 114 分钟
◎导  演 托比·霍珀 Tobe Hooper
       迈克尔·卡恩 Michael Kahn
◎编  剧 史蒂文·斯皮尔伯格 Steven Spielberg
◎主  演 格雷格·T·尼尔森 Craig T. Nelson
       乔贝兹·威廉姆斯 JoBeth Williams
       比阿特丽斯·斯特雷特 Beatrice Straight
       多米妮克·邓恩 Dominique Dunne
       奥利弗·罗宾斯 Oliver Robins
       赛尔达·鲁宾斯特恩 Zelda Rubinstein
       詹姆斯·凯伦 James Karen
       海瑟·欧罗克 Heather O'Rourke
       Michael McManus Michael McManus
       维吉妮娅·凯泽 Virginia Kiser
       理查德·劳森 Richard Lawson
       卢·佩里曼 Lou Perryman
       德克·布罗克 Dirk Blocker
       阿兰·格拉夫 Allan Graf

◎简  介

  事业有成、意气风发的史蒂文•弗瑞林(Craig T. Nelson 饰)带着妻子戴安(JoBeth Williams 饰)和三个孩子搬进了加利福尼亚某郊外社区。但在入住不久,怪事便频繁发生。先是小女儿卡萝(Heather O'Rourke 饰)梦游,对着自动开启漫屏雪花的电视机自言自语。接着便又不明物体从电视机中飘出,莫名的地震,破碎的玻璃杯……如此种种,搅得弗瑞林一家坐卧不定。过了不久,恐怖事件逐渐升级,卡萝最终竟被拉入电视机中……                                    
      本片荣获1983年美国科幻恐怖电影节最佳恐怖片、最佳化装和最佳女配角(Zelda Rubinstein)三个奖项;1983年英国电视与电影协会最佳特效奖。

◎获奖情况

  第55届奥斯卡金像奖 (1983)
  最佳视觉效果(提名)
  理查德·艾德兰德 / 迈克尔·伍德 / 布鲁斯·尼科尔森最佳音效剪辑(提名)
  理查德·路易斯·安德森 / 斯蒂芬·亨特·弗利克最佳原创配乐(提名)
  杰瑞·高德史密斯



Video
ID           : 1
Format       : AVC
Format/Info      : Advanced Video Codec
Format profile       : [email protected]
Format settings      : CABAC / 4 Ref Frames
Format settings, CABAC       : Yes
Format settings, Reference frames    : 4 frames
Codec ID         : avc1
Codec ID/Info        : Advanced Video Coding
Duration         : 1 h 54 min
Source duration      : 1 h 54 min
Bit rate         : 1 500 kb/s
Width        : 1 280 pixels
Height       : 536 pixels
Display aspect ratio     : 2.40:1
Frame rate mode      : Constant
Frame rate       : 23.976 (23976/1000) FPS
Color space      : YUV
Chroma subsampling       : 4:2:0
Bit depth        : 8 bits
Scan type        : Progressive
Bits/(Pixel*Frame)       : 0.091
Stream size      : 1.20 GiB (87%)
Source stream size       : 1.20 GiB (87%)
Writing library      : x264 core 152 r2851M ba24899
Encoding settings        : cabac=1 / ref=4 / deblock=1:-1:-1 / analyse=0x3:0x113 / me=umh / subme=9 / psy=1 / psy_rd=1.00:0.15 / mixed_ref=1 / me_range=24 / chroma_me=1 / trellis=2 / 8x8dct=1 / cqm=0 / deadzone=21,11 / fast_pskip=1 / chroma_qp_offset=-3 / threads=16 / lookahead_threads=4 / sliced_threads=0 / nr=0 / decimate=1 / interlaced=0 / bluray_compat=0 / constrained_intra=0 / bframes=3 / b_pyramid=2 / b_adapt=2 / b_bias=0 / direct=3 / weightb=1 / open_gop=0 / weightp=2 / keyint=250 / keyint_min=25 / scenecut=40 / intra_refresh=0 / rc_lookahead=50 / rc=2pass / mbtree=1 / bitrate=1500 / ratetol=1.0 / qcomp=0.60 / qpmin=0 / qpmax=69 / qpstep=4 / cplxblur=20.0 / qblur=0.5 / vbv_maxrate=31250 / vbv_bufsize=31250 / nal_hrd=none / filler=0 / ip_ratio=1.40 / aq=3:1.00
Encoded date         : UTC 2022-09-18 15:32:21
Tagged date      : UTC 2022-09-18 15:32:21
Codec configuration box      : avcC

Audio
ID           : 2
Format       : AAC LC
Format/Info      : Advanced Audio Codec Low Complexity
Codec ID         : mp4a-40-2
Duration         : 1 h 54 min
Bit rate mode        : Constant
Bit rate         : 224 kb/s
Channel(s)       : 6 channels
Channel layout       : C L R Ls Rs LFE
Sampling rate        : 48.0 kHz
Frame rate       : 46.875 FPS (1024 SPF)
Compression mode     : Lossy
Stream size      : 183 MiB (13%)
Language         : English
Default          : Yes
Alternate group      : 1
Encoded date         : UTC 2022-09-18 15:32:21
Tagged date      : UTC 2022-09-18 15:32:21



悠悠MP4_MP4电影下载_吵闹鬼 Poltergeist.1982.REMASTERED.720p.BluRay.H264.AAC-RARBG 1.39 GB
悠悠MP4_MP4电影下载_吵闹鬼 Poltergeist.1982.REMASTERED.720p.BluRay.H264.AAC-RARBG 1.39 GB
悠悠MP4_MP4电影下载_吵闹鬼 Poltergeist.1982.REMASTERED.720p.BluRay.H264.AAC-RARBG 1.39 GB

磁力链接

magnet:?xt=urn:btih:dd337e01214a0163465d2c59fe2ad844170ea7e2

上传的附件:
最新回复 (0)
返回
本站所有资源均收集自互联网,没有提供影片资源存储, 也未参与录制、上传,若本站收录的资源无意侵犯了您的权益, 请联系邮箱:gogoimgs#gmail.com(#[email protected])