[更早] [欧美] [犯罪] [x264-720P] 同床惊魂 The.Burning.Bed.1984.OAR.720p.BluRay.H264.AAC-RARBG 1.16 GB

uump4 1天前

悠悠MP4_MP4电影下载_同床惊魂 The.Burning.Bed.1984.OAR.720p.BluRay.H264.AAC-RARBG 1.16 GB

◎片  名 同床惊魂 The Burning Bed
◎年  代 1984
◎产  地 美国
◎类  别 剧情 / 犯罪
◎语  言 英语
◎上映日期 1984-10-08
◎IMDb评分  7.2/10 from 3020 users
◎IMDb链接  https://www.imdb.com/title/tt0087010/
◎豆瓣评分 /10 from 0 users
◎豆瓣链接 https://movie.douban.com/subject/3136418/
◎片  长 95分钟
◎导  演 罗伯特·格林沃德 Robert Greenwald
◎编  剧 Rose Leiman Goldemberg Rose Leiman Goldemberg
        Faith McNulty
◎主  演 Patricia George Patricia George
       费拉·福赛特 Farrah Fawcett
       韦恩·奈特 Wayne Knight
       理查德·马苏尔 Richard Masur
       保罗·勒马特 Paul Le Mat
       Jeffrey Lampert Jeffrey Lampert
       詹姆斯·T.卡拉汉 James T. Callahan
       胡莉汉德·伯克 Hoolihand Burke
       Elizabeth Lyn Fraser Elizabeth Lyn Fraser
       David Friedman David Friedman
       Christa Denton Christa Denton
       Justin Gocke Justin Gocke
       格蕾丝·扎布里斯基 Grace Zabriskie
       Fred D. Scott Fred D. Scott
       Anna Pagan Anna Pagan
       Gilmer McCormick Gilmer McCormick
       加里·格鲁布斯 Gary Grubbs
       詹姆斯·汉普顿 James Hampton
       佩内洛普·米尔福 Penelope Milford

◎简  介

  Farrah Fawcett earned Emmy and Golden Globe nominations for her portrayal of Francine Hughes in the television movie The Burning Bed. The film is structured as a series of flashbacks while Francine's character endures a murder trial after she poured gasoline on her sleeping spouse and burned him to death. Her husband Mickey (Paul Le Mat) drove her over the edge after years of physical and emotional abuse when he rapes her.



Video
ID           : 1
Format       : AVC
Format/Info      : Advanced Video Codec
Format profile       : [email protected]
Format settings      : CABAC / 4 Ref Frames
Format settings, CABAC       : Yes
Format settings, Reference frames    : 4 frames
Codec ID         : avc1
Codec ID/Info        : Advanced Video Coding
Duration         : 1 h 35 min
Source duration      : 1 h 35 min
Bit rate         : 1 500 kb/s
Width        : 962 pixels
Height       : 720 pixels
Display aspect ratio     : 4:3
Frame rate mode      : Constant
Frame rate       : 23.976 (23976/1000) FPS
Color space      : YUV
Chroma subsampling       : 4:2:0
Bit depth        : 8 bits
Scan type        : Progressive
Bits/(Pixel*Frame)       : 0.090
Stream size      : 1.00 GiB (87%)
Source stream size       : 1.00 GiB (87%)
Writing library      : x264 core 152 r2851M ba24899
Encoding settings        : cabac=1 / ref=4 / deblock=1:-1:-1 / analyse=0x3:0x113 / me=umh / subme=9 / psy=1 / psy_rd=1.00:0.15 / mixed_ref=1 / me_range=24 / chroma_me=1 / trellis=2 / 8x8dct=1 / cqm=0 / deadzone=21,11 / fast_pskip=1 / chroma_qp_offset=-3 / threads=16 / lookahead_threads=4 / sliced_threads=0 / nr=0 / decimate=1 / interlaced=0 / bluray_compat=0 / constrained_intra=0 / bframes=3 / b_pyramid=2 / b_adapt=2 / b_bias=0 / direct=3 / weightb=1 / open_gop=0 / weightp=2 / keyint=250 / keyint_min=25 / scenecut=40 / intra_refresh=0 / rc_lookahead=50 / rc=2pass / mbtree=1 / bitrate=1500 / ratetol=1.0 / qcomp=0.60 / qpmin=0 / qpmax=69 / qpstep=4 / cplxblur=20.0 / qblur=0.5 / vbv_maxrate=31250 / vbv_bufsize=31250 / nal_hrd=none / filler=0 / ip_ratio=1.40 / aq=3:1.00
Encoded date         : UTC 2022-08-06 18:24:09
Tagged date      : UTC 2022-08-06 18:24:09
Codec configuration box      : avcC

Audio
ID           : 2
Format       : AAC LC
Format/Info      : Advanced Audio Codec Low Complexity
Codec ID         : mp4a-40-2
Duration         : 1 h 35 min
Bit rate mode        : Constant
Bit rate         : 224 kb/s
Channel(s)       : 2 channels
Channel layout       : L R
Sampling rate        : 48.0 kHz
Frame rate       : 46.875 FPS (1024 SPF)
Compression mode     : Lossy
Stream size      : 153 MiB (13%)
Language         : English
Default          : Yes
Alternate group      : 1
Encoded date         : UTC 2022-08-06 18:24:09
Tagged date      : UTC 2022-08-06 18:24:09



悠悠MP4_MP4电影下载_同床惊魂 The.Burning.Bed.1984.OAR.720p.BluRay.H264.AAC-RARBG 1.16 GB
悠悠MP4_MP4电影下载_同床惊魂 The.Burning.Bed.1984.OAR.720p.BluRay.H264.AAC-RARBG 1.16 GB
悠悠MP4_MP4电影下载_同床惊魂 The.Burning.Bed.1984.OAR.720p.BluRay.H264.AAC-RARBG 1.16 GB

磁力链接

magnet:?xt=urn:btih:a63e667307ec5da345de0604c7e95a3f7c57046f

上传的附件:
最新回复 (0)
返回
本站所有资源均收集自互联网,没有提供影片资源存储, 也未参与录制、上传,若本站收录的资源无意侵犯了您的权益, 请联系邮箱:gogoimgs#gmail.com(#[email protected])