[2020] [欧美] [爱情] [x264-1080P] 海莲娜:画布人生 Helene.2020.FINNISH.1080p.WEBRip.AAC2.0.x264-KUCHU 3.59 GB

uump4 1天前

悠悠MP4_MP4电影下载_海莲娜:画布人生 Helene.2020.FINNISH.1080p.WEBRip.AAC2.0.x264-KUCHU 3.59 GB

◎片  名 海莲娜:画布人生 Helene / 藏爱的画像(台) / 海莲娜 / 海伦
◎年  代 2020
◎产  地 芬兰
◎类  别 剧情 / 爱情 / 传记
◎语  言 芬兰语
◎上映日期 2020-01-17(芬兰)
◎IMDb评分  6.1/10 from 558 users
◎IMDb链接  https://www.imdb.com/title/tt9742588/
◎豆瓣评分 7.6/10 from 2070 users
◎豆瓣链接 https://movie.douban.com/subject/30466237/
◎片  长 121分钟
◎导  演 安提·乔金恩 Antti Jokinen
◎编  剧 安提·乔金恩 Antti Jokinen
       马尔科·雷诺 Marko Leino
       拉克尔·列胡 Rakel Liehu
◎主  演 劳拉·布林 Laura Birn
       约翰内斯·霍洛佩宁 Johannes Holopainen
       皮尔科·赛西欧 Pirkko Saisio
       克里斯塔·科索恩 Krista Kosonen
       伊诺·阿霍 Eero Aho
       亚尔科·拉赫蒂 Jarkko Lahti
       萨娜·科伊维斯托 Saana Koivisto
       凯·库斯曼 Kaj Kuosmanen
       泰罗·雅蒂 Tero Jartti
       扬·科兰德 Jan Korander
       莉莲·派妮 Lilian Pärni
       克里斯蒂安·乌克斯库拉 Kristjan Üksküla

◎简  介

  故事发生在1915年。海莲娜是一位被遗忘的艺术家,她与年迈的母亲一起生活在乡下。距离她上一次办画展以来已经过去了很多年,海莲娜继续坚持着自己的热爱——绘画。当一个艺术品经销商发现了海莲娜和她的159幅令人惊叹的画作,并想要组织一个大型个展后,一切都会改变。但是,海莲娜一生中最重要的时刻是她与埃纳尔·路透的相遇带来的。埃纳尔是一位护林人,也是海莲娜及其艺术的狂热崇拜者。他成为了海莲娜的知己,也与她发展出了一段以悲剧告终的亲密关系。

◎获奖情况

  第23届上海国际电影节 (2020)
  金爵奖 最佳影片(提名)
  安提·乔金恩



Video
ID           : 1
Format       : AVC
Format/Info      : Advanced Video Codec
Format profile       : [email protected]
Format settings      : CABAC / 4 Ref Frames
Format settings, CABAC       : Yes
Format settings, Reference frames    : 4 frames
Codec ID         : V_MPEG4/ISO/AVC
Duration         : 2 h 1 min
Bit rate         : 3 928 kb/s
Width        : 1 920 pixels
Height       : 1 080 pixels
Display aspect ratio     : 16:9
Frame rate mode      : Constant
Frame rate       : 24.000 FPS
Color space      : YUV
Chroma subsampling       : 4:2:0
Bit depth        : 8 bits
Scan type        : Progressive
Bits/(Pixel*Frame)       : 0.079
Stream size      : 3.32 GiB (93%)
Default          : Yes
Forced       : No
Color range      : Limited
Color primaries      : BT.709
Transfer characteristics     : BT.709
Matrix coefficients      : BT.709

Audio
ID           : 2
Format       : AAC LC
Format/Info      : Advanced Audio Codec Low Complexity
Codec ID         : A_AAC-2
Duration         : 2 h 1 min
Bit rate         : 315 kb/s
Channel(s)       : 2 channels
Channel layout       : L R
Sampling rate        : 48.0 kHz
Frame rate       : 46.875 FPS (1024 SPF)
Compression mode     : Lossy
Stream size      : 273 MiB (7%)
Language         : Finnish
Default          : Yes
Forced       : No

Text
ID           : 3
Format       : UTF-8
Codec ID         : S_TEXT/UTF8
Codec ID/Info        : UTF-8 Plain Text
Duration         : 1 h 56 min
Bit rate         : 22 b/s
Frame rate       : 0.094 FPS
Count of elements        : 655
Stream size      : 19.4 KiB (0%)
Language         : English
Default          : Yes
Forced       : No



悠悠MP4_MP4电影下载_海莲娜:画布人生 Helene.2020.FINNISH.1080p.WEBRip.AAC2.0.x264-KUCHU 3.59 GB
悠悠MP4_MP4电影下载_海莲娜:画布人生 Helene.2020.FINNISH.1080p.WEBRip.AAC2.0.x264-KUCHU 3.59 GB
悠悠MP4_MP4电影下载_海莲娜:画布人生 Helene.2020.FINNISH.1080p.WEBRip.AAC2.0.x264-KUCHU 3.59 GB

磁力链接

magnet:?xt=urn:btih:8853f87d48efe3b9e431717ecd70cb8a17fb88bd

上传的附件:
最新回复 (0)
返回
本站所有资源均收集自互联网,没有提供影片资源存储, 也未参与录制、上传,若本站收录的资源无意侵犯了您的权益, 请联系邮箱:gogoimgs#gmail.com(#[email protected])