[2021] [欧美] [恐怖] [x264-1080P] 灵异显现 Infrared.2022.1080p.AMZN.WEBRip.DDP2.0.x264-SMURF 5.91 GB

uump4 1天前

悠悠MP4_MP4电影下载_灵异显现 Infrared.2022.1080p.AMZN.WEBRip.DDP2.0.x264-SMURF 5.91 GB

◎片  名 灵异显现 Infrared
◎年  代 2021
◎产  地 美国
◎类  别 恐怖
◎语  言 英语
◎上映日期 
◎IMDb评分  5.7/10 from 55 users
◎IMDb链接  https://www.imdb.com/title/tt14584216/
◎豆瓣评分 /10 from 0 users
◎豆瓣链接 https://movie.douban.com/subject/35603744/
◎片  长 89分钟
◎导  演 
◎编  剧 
◎主  演 格雷戈·赛斯特罗 Greg Sestero

◎简  介

  Family tensions between a brother and sister with psychic powers threaten to tear apart the filming of an episode of a paranormal reality TV show. But simmering emotions may be the least of the crew's problems...



Video
ID           : 1
Format       : AVC
Format/Info      : Advanced Video Codec
Format profile       : [email protected]
Format settings      : CABAC / 4 Ref Frames
Format settings, CABAC       : Yes
Format settings, Reference frames    : 4 frames
Codec ID         : V_MPEG4/ISO/AVC
Duration         : 1 h 28 min
Bit rate mode        : Constant
Bit rate         : 9 307 kb/s
Nominal bit rate     : 10 000 kb/s
Width        : 1 920 pixels
Height       : 1 040 pixels
Display aspect ratio     : 1.85:1
Frame rate mode      : Constant
Frame rate       : 24.000 FPS
Color space      : YUV
Chroma subsampling       : 4:2:0
Bit depth        : 8 bits
Scan type        : Progressive
Bits/(Pixel*Frame)       : 0.194
Stream size      : 5.77 GiB (98%)
Default          : Yes
Forced       : No
Color range      : Limited
Color primaries      : BT.709
Transfer characteristics     : BT.709
Matrix coefficients      : BT.709

Audio
ID           : 2
Format       : E-AC-3
Format/Info      : Enhanced AC-3
Commercial name      : Dolby Digital Plus
Codec ID         : A_EAC3
Duration         : 1 h 28 min
Bit rate mode        : Constant
Bit rate         : 224 kb/s
Channel(s)       : 2 channels
Channel layout       : L R
Sampling rate        : 48.0 kHz
Frame rate       : 31.250 FPS (1536 SPF)
Compression mode     : Lossy
Stream size      : 142 MiB (2%)
Language         : English
Service kind         : Complete Main
Default          : Yes
Forced       : No

Text #1
ID           : 3
Format       : UTF-8
Codec ID         : S_TEXT/UTF8
Codec ID/Info        : UTF-8 Plain Text
Duration         : 1 h 26 min
Bit rate         : 85 b/s
Frame rate       : 0.405 FPS
Count of elements        : 2110
Stream size      : 54.6 KiB (0%)
Language         : English
Default          : No
Forced       : No

Text #2
ID           : 4
Format       : UTF-8
Codec ID         : S_TEXT/UTF8
Codec ID/Info        : UTF-8 Plain Text
Duration         : 1 h 28 min
Bit rate         : 89 b/s
Frame rate       : 0.416 FPS
Count of elements        : 2200
Stream size      : 58.1 KiB (0%)
Title        : SDH
Language         : English
Default          : No
Forced       : No

Menu
01:28:42.000         : en:Credits



悠悠MP4_MP4电影下载_灵异显现 Infrared.2022.1080p.AMZN.WEBRip.DDP2.0.x264-SMURF 5.91 GB
悠悠MP4_MP4电影下载_灵异显现 Infrared.2022.1080p.AMZN.WEBRip.DDP2.0.x264-SMURF 5.91 GB
悠悠MP4_MP4电影下载_灵异显现 Infrared.2022.1080p.AMZN.WEBRip.DDP2.0.x264-SMURF 5.91 GB

磁力链接

magnet:?xt=urn:btih:b75f4af9daf79e7843ec6789a5aa109bdd787776

上传的附件:
最新回复 (0)
返回
本站所有资源均收集自互联网,没有提供影片资源存储, 也未参与录制、上传,若本站收录的资源无意侵犯了您的权益, 请联系邮箱:gogoimgs#gmail.com(#[email protected])