[2021] [欧美] [剧情] [x265-1080P] 蠼螋 Earwig.2021.1080p.WEBRip.x265-RARBG 1.78 GB

uump4 2天前

悠悠MP4_MP4电影下载_蠼螋 Earwig.2021.1080p.WEBRip.x265-RARBG 1.78 GB

◎片  名 蠼螋 Earwig
◎年  代 2021
◎产  地 英国 / 法国
◎类  别 剧情
◎语  言 英语
◎上映日期 2021-09(圣塞巴斯蒂安电影节)
◎IMDb评分  5.9/10 from 267 users
◎IMDb链接  https://www.imdb.com/title/tt10062338/
◎豆瓣评分 /10 from 0 users
◎豆瓣链接 https://movie.douban.com/subject/34964130/
◎片  长 114分钟
◎导  演 露西尔·哈兹哈利洛维奇 Lucile Hadzihalilovic
◎编  剧 露西尔·哈兹哈利洛维奇 Lucile Hadzihalilovic
       吉尔夫·考克斯 Geoff Cox
◎主  演 保罗·希尔顿 Paul Hilton
       埃里克斯·劳瑟 Alex Lawther
       萝玛拉·嘉瑞 Romola Garai

◎简  介

  保罗·希尔顿([永恒美人])、埃里克斯·劳瑟、萝玛拉·嘉瑞将主演新片[蠼螋]。该片由露西尔·哈兹哈利洛维奇([进化岛])执导,露西尔与吉尔夫·考克斯([太空生活])共同操刀剧本。该片根据Brian Catling的同名小说改编,讲述在20世纪30年代的欧洲某地,孤僻的Albert Scellinc受雇照顾10岁的Mia。他最重要的任务是照料她的冰假牙,这些假牙需要每天都要换好几次。他们单独住在一间大公寓里:百叶窗总是拉着,Mia从不离开,每天都是一成不变。每周,电话铃声会响起,一个男声会询问Albert女孩的健康状况,Albert每周都会用同样的答案来回答,直到有一天,那个声音告诉Albert,他必须坐着火车把女孩带到巴黎去。Albert伤心欲绝,他感觉他的世界在他身边慢慢解体了。该片已在比利时开拍。

◎获奖情况

  第46届多伦多国际电影节 (2021)
  站台奖(提名)
  露西尔·哈兹哈利洛维奇

  第69届圣塞巴斯蒂安国际电影节 (2021)
  金贝壳奖(提名)
  露西尔·哈兹哈利洛维奇评审团特别奖
  露西尔·哈兹哈利洛维奇



Video
ID           : 1
Format       : HEVC
Format/Info      : High Efficiency Video Coding
Format profile       : Main [email protected]@Main
Codec ID         : hev1
Codec ID/Info        : High Efficiency Video Coding
Duration         : 1 h 54 min
Bit rate         : 2 001 kb/s
Width        : 1 920 pixels
Height       : 804 pixels
Display aspect ratio     : 2.40:1
Frame rate mode      : Constant
Frame rate       : 24.000 FPS
Color space      : YUV
Chroma subsampling       : 4:2:0
Bit depth        : 10 bits
Bits/(Pixel*Frame)       : 0.054
Stream size      : 1.60 GiB (90%)
Writing library      : x265 3.3+4-rarbg-30eb4de83092:[Linux][GCC 8.3.1][64 bit] 10bit
Encoding settings        : cpuid=1111039 / frame-threads=4 / wpp / no-pmode / no-pme / no-psnr / no-ssim / log-level=2 / input-csp=1 / input-res=1920x804 / interlace=0 / total-frames=0 / level-idc=0 / high-tier=1 / uhd-bd=0 / ref=4 / no-allow-non-conformance / no-repeat-headers / annexb / no-aud / no-hrd / info / hash=0 / no-temporal-layers / open-gop / min-keyint=24 / keyint=250 / gop-lookahead=0 / bframes=4 / b-adapt=2 / b-pyramid / bframe-bias=0 / rc-lookahead=25 / lookahead-slices=4 / scenecut=40 / hist-scenecut=0 / radl=0 / no-splice / no-intra-refresh / ctu=64 / min-cu-size=8 / rect / no-amp / max-tu-size=32 / tu-inter-depth=1 / tu-intra-depth=1 / limit-tu=0 / rdoq-level=2 / dynamic-rd=0.00 / no-ssim-rd / signhide / no-tskip / nr-intra=0 / nr-inter=0 / no-constrained-intra / strong-intra-smoothing / max-merge=3 / limit-refs=3 / limit-modes / me=3 / subme=3 / merange=57 / temporal-mvp / no-frame-dup / no-hme / weightp / no-weightb / no-analyze-src-pics / deblock=0:0 / no-sao / no-sao-non-deblock / rd=4 / selective-sao=0 / no-early-skip / rskip / no-fast-intra / no-tskip-fast / no-cu-lossless / no-b-intra / no-splitrd-skip / rdpenalty=0 / psy-rd=2.00 / psy-rdoq=1.00 / no-rd-refine / no-lossless / cbqpoffs=0 / crqpoffs=0 / rc=abr / bitrate=2000 / qcomp=0.60 / qpstep=4 / stats-write=0 / stats-read=2 / cplxblur=20.0 / qblur=0.5 / ipratio=1.40 / pbratio=1.30 / aq-mode=3 / aq-strength=1.00 / cutree / zone-count=0 / no-strict-cbr / qg-size=32 / no-rc-grain / qpmax=69 / qpmin=0 / no-const-vbv / sar=1 / overscan=0 / videoformat=5 / range=0 / colorprim=2 / transfer=2 / colormatrix=2 / chromaloc=0 / display-window=0 / cll=0,0 / min-luma=0 / max-luma=1023 / log2-max-poc-lsb=8 / vui-timing-info / vui-hrd-info / slices=1 / no-opt-qp-pps / no-opt-ref-list-length-pps / no-multi-pass-opt-rps / scenecut-bias=0.05 / hist-threshold=0.01 / no-opt-cu-delta-qp / no-aq-motion / no-hdr10 / no-hdr10-opt / no-dhdr10-opt / no-idr-recovery-sei / analysis-reuse-level=0 / analysis-save-reuse-level=0 / analysis-load-reuse-level=0 / scale-factor=0 / refine-intra=0 / refine-inter=0 / refine-mv=1 / refine-ctu-distortion=0 / no-limit-sao / ctu-info=0 / no-lowpass-dct / refine-analysis-type=0 / copy-pic=1 / max-ausize-factor=1.0 / no-dynamic-refine / no-single-sei / no-hevc-aq / no-svt / no-field / qp-adaptation-range=1.00 / no-scenecut-aware-qpconformance-window-offsets / right=0 / bottom=0
Encoded date         : UTC 2022-08-05 23:23:19
Tagged date      : UTC 2022-08-05 23:23:19
Codec configuration box      : hvcC

Audio
ID           : 2
Format       : AAC LC
Format/Info      : Advanced Audio Codec Low Complexity
Codec ID         : mp4a-40-2
Duration         : 1 h 54 min
Bit rate mode        : Constant
Bit rate         : 224 kb/s
Channel(s)       : 2 channels
Channel layout       : L R
Sampling rate        : 48.0 kHz
Frame rate       : 46.875 FPS (1024 SPF)
Compression mode     : Lossy
Stream size      : 183 MiB (10%)
Language         : English
Default          : Yes
Alternate group      : 1
Encoded date         : UTC 2022-08-05 23:23:19
Tagged date      : UTC 2022-08-05 23:23:19



悠悠MP4_MP4电影下载_蠼螋 Earwig.2021.1080p.WEBRip.x265-RARBG 1.78 GB
悠悠MP4_MP4电影下载_蠼螋 Earwig.2021.1080p.WEBRip.x265-RARBG 1.78 GB
悠悠MP4_MP4电影下载_蠼螋 Earwig.2021.1080p.WEBRip.x265-RARBG 1.78 GB

磁力链接

magnet:?xt=urn:btih:12b936b08eb9fe1ad46cf0683bc9caffaa8e1490

上传的附件:
最新回复 (0)
返回
本站所有资源均收集自互联网,没有提供影片资源存储, 也未参与录制、上传,若本站收录的资源无意侵犯了您的权益, 请联系邮箱:gogoimgs#gmail.com(#[email protected])